Clipbucket v4 for Non-Convertable


#1

Converion Log for file

OutPut : ffmpeg version 3.4.1 Copyright © 2000-2017 the FFmpeg developers
built with gcc 5.4.0 (Ubuntu 5.4.0-6ubuntu1~16.04.5) 20160609
configuration:
libavutil 55. 78.100 / 55. 78.100
libavcodec 57.107.100 / 57.107.100
libavformat 57. 83.100 / 57. 83.100
libavdevice 57. 10.100 / 57. 10.100
libavfilter 6.107.100 / 6.107.100
libswscale 4. 8.100 / 4. 8.100
libswresample 2. 9.100 / 2. 9.100
Input #0, flv, from ‘/var/www/fgws/files/conversion_queue/15173643998e994.flv’:
Duration: 00:17:56.08, start: 0.000000, bitrate: 1161 kb/s
Stream #0:0: Audio: mp3, 44100 Hz, mono, s16p, 123 kb/s
Stream #0:1: Video: flv1, yuv420p, 576x432, 1024 kb/s, 25 fps, 25 tbr, 1k tbn
Stream mapping:
Stream #0:1 -> #0:0 (flv1 (flv) -> mjpeg (native))
Press [q] to stop, [?] for help
[swscaler @ 0x37c1a60] deprecated pixel format used, make sure you did set range correctly
Output #0, image2, to ‘/var/www/fgws/files/thumbs/2018/01/30/15173643998e994-768x432-5.jpg’:
Metadata:
encoder : Lavf57.83.100
Stream #0:0: Video: mjpeg, yuvj420p(pc), 768x432, q=2-31, 200 kb/s, 1 fps, 1 tbn, 1 tbc
Metadata:
encoder : Lavc57.107.100 mjpeg
Side data:
cpb: bitrate max/min/avg: 0/0/200000 buffer size: 0 vbv_delay: -1
frame= 1 fps=0.0 q=4.5 Lsize=N/A time=00:00:01.00 bitrate=N/A speed=59.2x
video:17kB audio:0kB subtitle:0kB other streams:0kB global headers:0kB muxing overhead: unknown

Response : /var/www/fgws/files/thumbs/2018/01/30/15173643998e994-768x432-5.jpg
====== End : Thumbs Generation =======

Conversion Completed

Time Took : 4.1788 seconds

conversion_status : failed


#2

The log file is so long that I can only upload a part of it


#3

When the video starts to change, there is an error


#4

Check your server for all the required modules and configurations. Your server must have all the required modules: https://clipbucket.com/cb-install-requirements/


#5


#6

all the required modules and configurations are ok


#7

I use the php7.1 for my website!


#8

According to the log, it seems that ffmpeg is not running


#9

Kindly check your server permissions for FFMPEG.